<?xml version="1.0" standalone="no"?>
<!DOCTYPE svg PUBLIC "-//W3C//DTD SVG 1.1//EN" "http://www.w3.org/Graphics/SVG/1.1/DTD/svg11.dtd" >
<svg xmlns="http://www.w3.org/2000/svg" xmlns:xlink="http://www.w3.org/1999/xlink" version="1.1">
<metadata>
Created by FontForge 20150804 at Mon Dec  9 08:32:39 2019
 By cloudconvert
Copyright (c) 2015 Apple Inc. All rights reserved.
</metadata>
<defs>
<font id="PingFangSC-Medium" horiz-adv-x="600" >
  <font-face 
    font-family="PingFang SC Medium"
    font-weight="400"
    font-stretch="normal"
    units-per-em="1000"
    panose-1="2 11 4 0 0 0 0 0 0 0"
    ascent="860"
    descent="-140"
    x-height="517"
    cap-height="714"
    bbox="-15 -212 925 860"
    underline-thickness="64"
    underline-position="-196"
    unicode-range="U+0021-007E"
  />
<missing-glyph horiz-adv-x="1000" 
d="M120 714h93l-15 -522h-62zM210 102q17 -17 17 -42q0 -26 -17 -43q-19 -17 -44 -17t-42 17q-18 18 -18 43q0 26 18 42q16 17 42 17q27 0 44 -17z" />
    <glyph glyph-name=".notdef" horiz-adv-x="1000" 
d="M120 714h93l-15 -522h-62zM210 102q17 -17 17 -42q0 -26 -17 -43q-19 -17 -44 -17t-42 17q-18 18 -18 43q0 26 18 42q16 17 42 17q27 0 44 -17z" />
    <glyph glyph-name="exclam" unicode="!" horiz-adv-x="333" 
d="M120 714h93l-15 -522h-62zM210 102q17 -17 17 -42q0 -26 -17 -43q-19 -17 -44 -17t-42 17q-18 18 -18 43q0 26 18 42q16 17 42 17q27 0 44 -17z" />
    <glyph glyph-name="quotedbl" unicode="&#x22;" horiz-adv-x="457" 
d="M397 631q0 -129 -113 -191l-27 43q78 51 84 129q-8 -2 -16 -2q-25 0 -43 16q-18 17 -18 42q0 28 17 44t44 16q72 0 72 -97zM200 631q0 -129 -113 -191l-27 43q78 51 84 129q-8 -2 -16 -2q-25 0 -44 16q-17 16 -17 42q0 28 17 44t44 16q72 0 72 -97z" />
    <glyph glyph-name="numbersign" unicode="#" 
d="M74 545h114l27 169h66l-27 -169h152l27 169h66l-27 -169h101l-9 -60h-101l-41 -257h113l-9 -60h-113l-27 -168h-67l27 168h-151l-27 -168h-67l27 168h-101l9 60h101l41 257h-113zM204 228h151l41 257h-151z" />
    <glyph glyph-name="dollar" unicode="$" 
d="M273 809h50v-82q88 -6 142 -51q60 -51 75 -156h-80q-10 71 -53 106q-32 26 -84 32v-262q102 -37 123 -46q106 -56 106 -160q0 -105 -74 -158q-60 -41 -155 -45v-88h-50v88q-99 6 -154 62q-60 60 -70 179h81q9 -89 48 -130q33 -35 95 -41v277q-58 22 -106 39
q-107 54 -107 159q0 99 71 149q57 43 142 46v82zM323 57q65 5 103 34q44 35 44 97q0 73 -106 114q-28 10 -41 14v-259zM273 414v244q-53 -3 -86 -28q-45 -31 -45 -98t106 -109z" />
    <glyph glyph-name="percent" unicode="%" horiz-adv-x="970" 
d="M862 332q38 -52 38 -137q0 -84 -38 -137q-44 -58 -123 -58q-80 0 -123 58q-38 53 -38 137q0 87 38 137q41 59 123 59q80 0 123 -59zM653 728h64l-400 -742h-65zM354 655q38 -52 38 -137q0 -84 -38 -137q-44 -58 -123 -58q-80 0 -123 58q-38 53 -38 137q0 87 38 137
q41 59 123 59q80 0 123 -59zM672 295q-19 -35 -19 -100q0 -63 19 -98q22 -43 67 -43q44 0 67 44q19 38 19 97q0 61 -19 99q-22 43 -67 43q-46 0 -67 -42zM164 618q-19 -35 -19 -100q0 -63 19 -98q22 -43 67 -43q44 0 67 44q19 38 19 97q0 62 -20 99q-21 43 -66 43
q-46 0 -67 -42z" />
    <glyph glyph-name="ampersand" unicode="&#x26;" horiz-adv-x="726" 
d="M234 640q-26 -20 -26 -63q0 -29 32 -73q13 -18 47 -57q9 6 21 12q93 54 93 117q0 38 -24 62q-26 26 -72 26q-47 0 -71 -24zM221 410q-46 49 -65 79q-29 44 -29 87q0 71 54 113q50 39 126 39t124 -39q52 -40 52 -108q0 -70 -67 -125q-7 -5 -42 -27q-26 -18 -43 -28
l179 -189q38 83 46 206h81q-6 -158 -68 -268l142 -150h-104l-83 88q-90 -102 -232 -102q-108 0 -177 52q-73 57 -73 157t93 167zM470 145l-204 217q-47 -30 -89 -62q-53 -44 -53 -106q0 -60 48 -99q45 -36 117 -36q112 0 181 86z" />
    <glyph glyph-name="quotesingle" unicode="'" horiz-adv-x="260" 
d="M200 631q0 -129 -113 -191l-27 43q78 51 84 129q-8 -2 -16 -2q-25 0 -44 16q-17 16 -17 42q0 28 17 44t44 16q72 0 72 -97z" />
    <glyph glyph-name="parenleft" unicode="(" horiz-adv-x="333" 
d="M275 827q-62 -101 -95 -207q-44 -129 -44 -260t44 -260q32 -105 95 -207h-70q-65 95 -103 206q-44 126 -44 260q0 136 44 262q38 112 103 206h70z" />
    <glyph glyph-name="parenright" unicode=")" horiz-adv-x="333" 
d="M128 827q63 -94 103 -206q44 -130 44 -262q0 -130 -44 -260q-40 -111 -103 -206h-70q61 102 95 207q44 134 44 260t-44 260q-34 106 -95 207h70z" />
    <glyph glyph-name="asterisk" unicode="*" horiz-adv-x="506" 
d="M218 714h70l-7 -195l178 68l22 -66l-184 -55l124 -147l-54 -43l-114 158l-114 -158l-54 43l124 147l-184 55l22 66l179 -68z" />
    <glyph glyph-name="plus" unicode="+" horiz-adv-x="605" 
d="M269 511h68v-218h218v-68h-218v-219h-68v219h-219v68h219v218z" />
    <glyph glyph-name="comma" unicode="," horiz-adv-x="264" 
d="M200 21q0 -129 -113 -191l-27 43q79 52 85 129q-10 -2 -17 -2q-25 0 -43 16q-17 16 -17 42q0 29 16 44q17 16 44 16q72 0 72 -97z" />
    <glyph glyph-name="hyphen" unicode="-" horiz-adv-x="605" 
d="M50 293h505v-68h-505v68z" />
    <glyph glyph-name="period" unicode="." horiz-adv-x="264" 
d="M175 102q18 -16 18 -42t-18 -43q-19 -17 -43 -17t-43 17q-18 18 -18 43q0 26 18 42q17 17 43 17t43 -17z" />
    <glyph glyph-name="slash" unicode="/" horiz-adv-x="500" 
d="M392 820h71l-354 -920h-72z" />
    <glyph glyph-name="zero" unicode="0" 
d="M493 615q57 -96 57 -258t-57 -258q-66 -113 -193 -113q-128 0 -193 113q-57 96 -57 258t57 258q64 113 193 113q128 0 193 -113zM162 555q-30 -72 -30 -198q0 -124 30 -198q42 -103 138 -103t138 103q31 76 31 198q0 124 -31 198q-42 103 -138 103t-138 -103z" />
    <glyph glyph-name="one" unicode="1" 
d="M361 714v-714h-82v614q-66 -68 -168 -98v82q47 13 100 44q49 30 86 72h64z" />
    <glyph glyph-name="two" unicode="2" 
d="M473 671q64 -58 64 -151q0 -92 -70 -168q-41 -43 -148 -115q-136 -91 -156 -164h375v-73h-476q0 99 71 177q46 52 155 127q85 61 112 89q55 60 55 128q0 65 -39 101t-109 36q-75 0 -113 -50q-43 -49 -44 -143h-82q0 119 67 191q66 72 175 72q99 0 163 -57z" />
    <glyph glyph-name="three" unicode="3" 
d="M473 676q62 -53 62 -142q0 -121 -117 -160q64 -20 96 -61q36 -42 36 -105q0 -97 -68 -159q-69 -63 -180 -63q-100 0 -166 52q-76 63 -85 183h83q3 -84 56 -128q46 -37 112 -37q76 0 123 44q43 43 43 105q0 64 -42 100q-41 35 -116 35h-58v64h55q71 0 109 32q38 33 38 93
q0 59 -37 93q-38 35 -109 35q-73 0 -112 -38q-41 -38 -49 -111h-81q9 103 76 162q62 58 165 58q104 0 166 -52z" />
    <glyph glyph-name="four" unicode="4" 
d="M384 714h77v-485h116v-67h-116v-162h-78v162h-359v78zM380 607l-287 -378h290v378h-3z" />
    <glyph glyph-name="five" unicode="5" 
d="M105 714h415v-73h-348l-24 -239h4q30 36 77 54q40 17 91 17q102 0 165 -64q64 -67 64 -181q0 -108 -77 -177q-73 -65 -178 -65q-95 0 -161 51q-74 57 -82 155h81q6 -68 54 -104q43 -32 109 -32q75 0 124 48q49 49 49 123q0 84 -46 132q-43 47 -122 47q-51 0 -91 -22
q-43 -21 -64 -64h-78z" />
    <glyph glyph-name="six" unicode="6" 
d="M538 537h-81q-24 122 -148 122q-85 0 -132 -83q-47 -76 -47 -200q0 -13 1 -26h4q28 57 77 86q47 31 111 31q102 0 165 -66q62 -67 62 -170q0 -105 -68 -175q-70 -70 -173 -70q-129 0 -196 97q-62 90 -62 255q0 172 67 278q70 112 192 112q198 0 228 -191zM190 351
q-46 -47 -46 -122q0 -76 44 -123q45 -51 119 -51q71 0 117 49q45 51 45 127q0 75 -44 121q-44 47 -118 47q-70 0 -117 -48z" />
    <glyph glyph-name="seven" unicode="7" 
d="M66 714h469v-67l-263 -647h-87l266 639h-385v75z" />
    <glyph glyph-name="eight" unicode="8" 
d="M475 670q58 -53 58 -131q0 -57 -27 -96q-31 -43 -85 -62v-2q56 -14 95 -62q42 -51 42 -120q0 -95 -66 -152q-70 -59 -192 -59q-124 0 -192 59q-66 57 -66 152q0 69 42 120q40 49 95 62v2q-56 19 -85 62q-27 39 -27 96q0 79 58 131q62 58 175 58t175 -58zM181 622
q-37 -33 -37 -86q0 -55 33 -88q40 -40 123 -40q81 0 123 40q33 33 33 88q0 52 -37 86q-43 39 -119 39q-77 0 -119 -39zM167 301q-44 -38 -44 -104q0 -65 44 -103q46 -41 133 -41q86 0 134 42q43 40 43 102q0 64 -43 104q-47 43 -134 43t-133 -43z" />
    <glyph glyph-name="nine" unicode="9" 
d="M487 632q63 -90 63 -256q0 -168 -67 -278q-73 -112 -192 -112q-199 0 -228 191h81q23 -122 148 -122q82 0 132 83q47 80 47 200l-1 26h-4q-27 -54 -77 -86q-50 -31 -111 -31q-103 0 -166 68q-61 64 -61 168q0 107 68 175q67 70 173 70q129 0 195 -96zM176 610
q-44 -48 -44 -127q0 -77 44 -121q44 -47 118 -47q69 0 117 48q46 49 46 122q0 74 -44 123q-45 51 -119 51q-73 0 -118 -49z" />
    <glyph glyph-name="colon" unicode=":" horiz-adv-x="264" 
d="M175 468q18 -16 18 -42t-18 -43q-19 -17 -43 -17t-43 17q-18 18 -18 43q0 26 18 42q17 17 43 17t43 -17zM175 102q18 -16 18 -42t-18 -43q-19 -17 -43 -17t-43 17q-18 18 -18 43q0 26 18 42q17 17 43 17t43 -17z" />
    <glyph glyph-name="semicolon" unicode=";" horiz-adv-x="264" 
d="M175 468q18 -16 18 -42t-18 -43q-19 -17 -43 -17t-43 17q-18 18 -18 43q0 26 18 42q17 17 43 17t43 -17zM204 21q0 -129 -113 -191l-27 43q78 51 84 129q-8 -2 -16 -2q-25 0 -44 16q-17 16 -17 42q0 30 17 44q17 16 44 16q72 0 72 -97z" />
    <glyph glyph-name="less" unicode="&#x3c;" horiz-adv-x="605" 
d="M555 515v-74l-411 -183l411 -182v-75l-505 226v63z" />
    <glyph glyph-name="equal" unicode="=" horiz-adv-x="605" 
d="M50 395h505v-67h-505v67zM50 190h505v-68h-505v68z" />
    <glyph glyph-name="greater" unicode="&#x3e;" horiz-adv-x="605" 
d="M50 515l505 -225v-63l-505 -226v75l411 182l-411 183v74z" />
    <glyph glyph-name="question" unicode="?" horiz-adv-x="537" 
d="M431 675q56 -51 56 -141q0 -66 -37 -117q-14 -17 -82 -77q-31 -26 -46 -54q-19 -32 -19 -74v-23h-81v23q0 50 19 87q18 43 101 116q20 20 34 36q29 38 29 79q0 60 -33 93q-35 35 -99 35q-74 0 -111 -49q-32 -43 -32 -115h-80q0 104 59 168q62 66 168 66q98 0 154 -53z
M306 102q17 -17 17 -42q0 -26 -17 -43q-19 -17 -43 -17q-26 0 -43 17q-18 18 -18 43q0 26 18 42q16 17 43 17q26 0 43 -17z" />
    <glyph glyph-name="at" unicode="@" horiz-adv-x="858" 
d="M689 634q84 -85 84 -214q0 -106 -67 -194q-66 -83 -144 -83q-63 0 -69 66q-51 -68 -126 -68q-62 0 -102 43q-39 42 -39 107q0 113 68 193q65 80 155 80q72 0 96 -75l15 56h65l-71 -261q-12 -43 -12 -61q0 -25 28 -25q46 0 93 59q54 69 54 162q0 107 -72 177
q-77 76 -208 76q-138 0 -228 -91q-88 -89 -88 -229q0 -152 89 -234q85 -79 231 -79q105 0 184 38q70 35 111 94h70q-53 -90 -151 -138q-97 -47 -214 -47q-179 0 -283 99q-106 102 -106 269q0 157 106 262q111 112 283 112q157 0 248 -94zM347 439q-51 -63 -51 -151
q0 -41 19 -64q20 -24 57 -24q38 0 74 30t48 70l22 82q10 43 10 48q0 27 -17 47q-19 24 -49 24q-66 0 -113 -62z" />
    <glyph glyph-name="A" unicode="A" horiz-adv-x="657" 
d="M281 714h95l281 -714h-89l-76 200h-328l-76 -200h-88zM190 269h276l-135 357h-4z" />
    <glyph glyph-name="B" unicode="B" horiz-adv-x="677" 
d="M72 714h319q100 0 158 -48q57 -48 57 -132q0 -60 -32 -104q-33 -39 -87 -57q69 -12 109 -58t40 -116q0 -105 -74 -156q-64 -43 -173 -43h-317v714zM154 645v-243h217q74 0 114 31q40 32 40 93q0 60 -39 90q-38 29 -114 29h-218zM154 334v-265h228q72 0 119 28
q53 33 53 103q0 68 -46 102q-42 32 -126 32h-228z" />
    <glyph glyph-name="C" unicode="C" horiz-adv-x="728" 
d="M580 665q81 -63 96 -170h-79q-15 77 -76 120q-58 40 -142 40q-124 0 -192 -87q-63 -81 -63 -214q0 -135 62 -212q66 -83 191 -83q85 0 145 45q64 49 85 141h79q-24 -126 -112 -194q-83 -65 -197 -65q-166 0 -255 110q-80 98 -80 258t82 261q89 113 256 113q119 0 200 -63
z" />
    <glyph glyph-name="D" unicode="D" horiz-adv-x="706" 
d="M72 714h256q170 0 256 -98q80 -91 80 -259q0 -165 -86 -259q-90 -98 -258 -98h-248v714zM154 643v-572h152q139 0 210 74q67 73 67 212q0 143 -62 213q-66 73 -206 73h-161z" />
    <glyph glyph-name="E" unicode="E" horiz-adv-x="637" 
d="M72 714h506v-71h-424v-239h400v-71h-400v-262h441v-71h-523v714z" />
    <glyph glyph-name="F" unicode="F" horiz-adv-x="577" 
d="M72 714h478v-71h-396v-240h375v-71h-375v-332h-82v714z" />
    <glyph glyph-name="G" unicode="G" horiz-adv-x="748" 
d="M590 663q75 -61 94 -178h-82q-16 80 -72 124q-58 46 -153 46q-116 0 -185 -82q-68 -80 -68 -219q0 -135 66 -213q71 -83 210 -83q54 0 112 16q50 14 90 40v182h-224v71h305v-292q-49 -40 -125 -65q-78 -24 -166 -24q-170 0 -263 108q-87 101 -87 260q0 160 86 262
q91 112 249 112q135 0 213 -65z" />
    <glyph glyph-name="H" unicode="H" horiz-adv-x="720" 
d="M72 714h82v-310h413v310h82v-714h-82v333h-413v-333h-82v714z" />
    <glyph glyph-name="I" unicode="I" horiz-adv-x="237" 
d="M78 714h81v-714h-81v714z" />
    <glyph glyph-name="J" unicode="J" horiz-adv-x="517" 
d="M364 714h82v-486q0 -116 -48 -176q-54 -66 -173 -66q-99 0 -154 55q-56 56 -56 162v25h82v-24q0 -145 130 -145q71 0 105 43q32 41 32 129v483z" />
    <glyph glyph-name="K" unicode="K" horiz-adv-x="690" 
d="M538 714h107l-323 -306l368 -408h-110l-315 355l-111 -105v-250h-82v714h82v-371z" />
    <glyph glyph-name="L" unicode="L" horiz-adv-x="588" 
d="M72 714h81v-643h413v-71h-494v714z" />
    <glyph glyph-name="M" unicode="M" horiz-adv-x="882" 
d="M72 714h102l266 -609h3l265 609h102v-714h-82v568h-3l-247 -568h-74l-247 568h-3v-568h-82v714z" />
    <glyph glyph-name="N" unicode="N" horiz-adv-x="719" 
d="M72 714h86l404 -581h3v581h82v-714h-84l-406 587h-3v-587h-82v714z" />
    <glyph glyph-name="O" unicode="O" horiz-adv-x="767" 
d="M637 621q88 -103 88 -265q0 -160 -88 -263q-93 -107 -254 -107q-160 0 -253 107q-88 101 -88 263q0 163 88 264q93 108 254 108t253 -107zM190 570q-66 -81 -66 -214q0 -132 66 -213q69 -84 193 -84q123 0 193 82q67 82 67 215q0 135 -67 217q-69 82 -192 82
q-124 0 -194 -85z" />
    <glyph glyph-name="P" unicode="P" horiz-adv-x="642" 
d="M72 714h292q246 0 246 -210q0 -212 -247 -212h-209v-292h-82v714zM154 643v-280h205q85 0 128 35q41 35 41 106q0 73 -42 104q-41 35 -127 35h-205z" />
    <glyph glyph-name="Q" unicode="Q" horiz-adv-x="767" 
d="M637 621q88 -103 88 -265q0 -160 -88 -263q-4 -4 -5 -6q34 -44 82 -113l-54 -47q-49 70 -82 114q-82 -55 -195 -55q-160 0 -253 107q-88 101 -88 263q0 163 88 264q93 108 254 108t253 -107zM190 570q-66 -81 -66 -214q0 -132 66 -213q69 -84 193 -84q89 0 149 42
q-62 79 -120 140l49 47q69 -74 122 -139q60 80 60 207q0 135 -67 217q-69 82 -192 82q-124 0 -194 -85z" />
    <glyph glyph-name="R" unicode="R" horiz-adv-x="676" 
d="M72 714h308q107 0 168 -49q64 -52 64 -150q0 -59 -33 -106q-35 -47 -97 -62v-2q102 -23 114 -130l11 -110q6 -65 38 -105h-89q-25 37 -29 95l-9 95q-6 64 -45 91q-35 26 -103 26h-216v-307h-82v714zM154 643v-265h216q78 0 121 37q38 35 38 97q0 66 -37 98
q-39 33 -122 33h-216z" />
    <glyph glyph-name="S" unicode="S" horiz-adv-x="632" 
d="M502 673q71 -57 82 -170h-81q-13 77 -60 115t-135 38q-81 0 -124 -26q-51 -30 -51 -91q0 -54 61 -87q26 -15 131 -45q141 -42 186 -69q89 -54 89 -151q0 -94 -75 -148q-76 -53 -202 -53t-198 54q-84 65 -93 196h81q11 -93 65 -137q51 -40 145 -40q88 0 142 33t54 90
q0 67 -71 105q-27 16 -151 52q-126 38 -164 58q-82 48 -82 138q0 94 79 145q71 48 182 48q122 0 190 -55z" />
    <glyph glyph-name="T" unicode="T" horiz-adv-x="619" 
d="M17 714h585v-71h-252v-643h-81v643h-252v71z" />
    <glyph glyph-name="U" unicode="U" horiz-adv-x="714" 
d="M72 714h82v-441q0 -106 47 -159q50 -56 156 -56q105 0 156 56q47 55 47 159v441h82v-440q0 -139 -71 -213q-73 -75 -214 -75t-213 74q-72 75 -72 214v440z" />
    <glyph glyph-name="V" unicode="V" horiz-adv-x="639" 
d="M5 714h90l223 -625h3l223 625h90l-264 -714h-101z" />
    <glyph glyph-name="W" unicode="W" horiz-adv-x="930" 
d="M5 714h92l157 -599h4l163 599h89l162 -599h4l157 599h92l-205 -714h-91l-162 595h-3l-163 -595h-91z" />
    <glyph glyph-name="X" unicode="X" horiz-adv-x="637" 
d="M24 714h101l193 -278l194 278h101l-246 -343l265 -371h-101l-213 306l-212 -306h-101l263 371z" />
    <glyph glyph-name="Y" unicode="Y" horiz-adv-x="662" 
d="M5 714h99l227 -348l227 348h99l-285 -424v-290h-82v290z" />
    <glyph glyph-name="Z" unicode="Z" horiz-adv-x="624" 
d="M55 714h520v-68l-444 -575h468v-71h-574v67l445 576h-415v71z" />
    <glyph glyph-name="bracketleft" unicode="[" horiz-adv-x="333" 
d="M44 827h245v-67h-171v-800h171v-67h-245v934z" />
    <glyph glyph-name="backslash" unicode="\" horiz-adv-x="500" 
d="M37 820h71l355 -920h-72z" />
    <glyph glyph-name="bracketright" unicode="]" horiz-adv-x="333" 
d="M44 827h245v-934h-245v67h171v800h-171v67z" />
    <glyph glyph-name="asciicircum" unicode="^" horiz-adv-x="518" 
d="M221 714h76l161 -344h-67l-132 275l-132 -275h-67z" />
    <glyph glyph-name="underscore" unicode="_" horiz-adv-x="500" 
d="M0 -73h500v-67h-500v67z" />
    <glyph glyph-name="grave" unicode="`" horiz-adv-x="333" 
d="M71 722h91l101 -146h-55z" />
    <glyph glyph-name="a" unicode="a" horiz-adv-x="559" 
d="M451 473q46 -52 46 -141v-332h-75v87q-31 -43 -80 -70q-59 -31 -128 -31q-78 0 -124 40q-48 41 -48 109q0 99 79 144q64 38 172 38l124 1v17q0 130 -135 130q-63 0 -98 -26q-39 -27 -48 -80h-79q12 89 76 132q56 40 154 40q110 0 164 -58zM417 255l-119 -1
q-174 0 -174 -118q0 -38 28 -62q29 -23 79 -23q78 0 133 48q53 48 53 111v45z" />
    <glyph glyph-name="b" unicode="b" horiz-adv-x="586" 
d="M62 728h80v-306q60 109 171 109t173 -83q58 -76 58 -188q0 -116 -58 -192q-65 -82 -177 -82q-119 0 -172 99v-85h-75v728zM183 409q-44 -54 -44 -146v-10q0 -87 39 -141q42 -60 121 -60q83 0 126 61q37 56 37 147q0 93 -39 145q-43 60 -127 60q-72 0 -113 -56z" />
    <glyph glyph-name="c" unicode="c" horiz-adv-x="547" 
d="M439 486q59 -46 73 -141h-79q-10 60 -48 90q-38 29 -100 29q-75 0 -119 -57q-42 -55 -42 -150q0 -96 41 -149q41 -55 119 -55q133 0 151 134h80q-18 -101 -77 -151t-154 -50q-116 0 -181 78q-61 73 -61 192t61 193q66 82 182 82q96 0 154 -45z" />
    <glyph glyph-name="d" unicode="d" horiz-adv-x="586" 
d="M444 728h80v-728h-75v85q-54 -99 -172 -99q-113 0 -177 82q-58 74 -58 192q0 114 58 188q62 83 173 83t171 -109v306zM162 405q-38 -51 -38 -145t37 -147q43 -61 126 -61q78 0 121 60q38 55 38 141v10q0 89 -43 146q-43 56 -113 56q-86 0 -128 -60z" />
    <glyph glyph-name="e" unicode="e" horiz-adv-x="555" 
d="M463 447q57 -75 60 -211h-408q6 -88 47 -135q42 -48 116 -48q63 0 103 32q32 26 52 81h80q-18 -74 -70 -122q-66 -58 -165 -58q-111 0 -178 73q-68 74 -68 200q0 116 65 191q66 81 178 81q125 0 188 -84zM166 419q-41 -44 -49 -121h323q-15 166 -163 166q-69 0 -111 -45z
" />
    <glyph glyph-name="f" unicode="f" horiz-adv-x="373" 
d="M368 714v-69h-89q-35 0 -49 -17q-15 -16 -15 -54v-57h146v-67h-146v-450h-80v450h-130v67h130v59q0 65 33 101q34 37 101 37h99z" />
    <glyph glyph-name="g" unicode="g" horiz-adv-x="591" 
d="M449 428v89h80v-481q0 -248 -236 -248q-106 0 -160 42q-55 42 -69 126h80q9 -53 44 -77q35 -26 105 -26q156 0 156 172v91q-57 -104 -174 -104q-108 0 -171 74q-62 71 -62 184q0 114 62 185q63 76 171 76q117 0 174 -103zM166 409q-42 -51 -42 -139q0 -83 37 -133
q43 -58 125 -58q77 0 122 54q42 53 42 137q0 88 -42 139q-44 56 -121 56q-78 0 -121 -56z" />
    <glyph glyph-name="h" unicode="h" horiz-adv-x="556" 
d="M62 728h80v-296q27 50 72 75q42 24 94 24q92 0 139 -53q48 -52 48 -152v-326h-80v314q0 71 -34 111q-36 39 -100 39q-60 0 -99 -48q-40 -47 -40 -121v-295h-80v728z" />
    <glyph glyph-name="i" unicode="i" horiz-adv-x="256" 
d="M171 695q18 -15 18 -42q0 -25 -18 -43q-19 -17 -43 -17t-43 17q-17 17 -17 43q0 28 17 42q17 17 43 17t43 -17zM88 517h80v-517h-80v517z" />
    <glyph glyph-name="j" unicode="j" horiz-adv-x="267" 
d="M182 695q17 -15 17 -42q0 -24 -17 -43q-19 -17 -44 -17q-24 0 -43 17q-17 17 -17 43q0 28 17 42q17 17 43 17q27 0 44 -17zM98 517h80v-577q0 -138 -145 -138h-48v67h42q71 0 71 74v574z" />
    <glyph glyph-name="k" unicode="k" horiz-adv-x="529" 
d="M62 728h80v-451l259 240h106l-228 -208l250 -309h-103l-202 257l-82 -74v-183h-80v728z" />
    <glyph glyph-name="l" unicode="l" horiz-adv-x="235" 
d="M78 728h79v-728h-79v728z" />
    <glyph glyph-name="m" unicode="m" horiz-adv-x="855" 
d="M450 433q30 52 72 74q38 24 91 24q80 0 131 -51q49 -54 49 -141v-339h-80v326q0 68 -29 102q-29 35 -96 35q-53 0 -85 -38q-35 -38 -35 -101v-324h-80v326q0 137 -119 137q-56 0 -91 -44q-36 -42 -36 -104v-315h-80v517h80v-69q58 83 146 83q119 0 162 -98z" />
    <glyph glyph-name="n" unicode="n" horiz-adv-x="559" 
d="M497 318v-318h-80v312q0 151 -136 151q-54 0 -93 -39q-41 -41 -46 -112v-312h-80v517h80v-76q27 44 69 66q42 24 93 24q193 0 193 -213z" />
    <glyph glyph-name="o" unicode="o" horiz-adv-x="586" 
d="M478 451q66 -76 66 -193q0 -115 -65 -191q-70 -81 -186 -81t-185 81q-66 75 -66 191q0 117 66 193q68 80 185 80t185 -80zM165 401q-41 -56 -41 -143q0 -86 41 -142q45 -63 128 -63q81 0 129 63q41 58 41 142q0 85 -41 143q-48 63 -129 63q-83 0 -128 -63z" />
    <glyph glyph-name="p" unicode="p" horiz-adv-x="586" 
d="M485 448q59 -76 59 -191q0 -113 -58 -189q-64 -82 -173 -82q-111 0 -171 108v-292h-80v715h75v-85q56 99 172 99q112 0 176 -83zM178 404q-39 -54 -39 -142v-10q0 -91 44 -145q43 -55 113 -55q83 0 127 58q39 54 39 147q0 91 -37 146q-43 62 -126 62q-79 0 -121 -61z" />
    <glyph glyph-name="q" unicode="q" horiz-adv-x="586" 
d="M449 432v85h75v-715h-80v292q-60 -108 -171 -108q-110 0 -174 82q-57 75 -57 189q0 117 58 191q62 83 177 83t172 -99zM161 403q-37 -53 -37 -146t39 -147q43 -58 127 -58q69 0 113 55q43 57 43 145v10q0 87 -38 142q-43 61 -121 61q-85 0 -126 -62z" />
    <glyph glyph-name="r" unicode="r" horiz-adv-x="365" 
d="M360 519v-80q-36 11 -77 11q-61 0 -101 -53q-41 -50 -41 -123v-274h-79v517h79v-90q21 46 54 71q41 33 94 33q43 0 71 -12z" />
    <glyph glyph-name="s" unicode="s" horiz-adv-x="505" 
d="M457 370h-78q-11 50 -40 70q-33 24 -95 24q-55 0 -84 -20q-33 -19 -33 -54q0 -34 44 -56q25 -12 107 -34q92 -22 133 -48q62 -39 62 -106q0 -160 -219 -160q-204 0 -222 179h78q9 -60 43 -88q33 -24 99 -24q139 0 139 88q0 43 -49 67q-25 12 -110 33q-93 23 -128 46
q-59 35 -59 101q0 65 58 104q54 39 142 39q191 0 212 -161z" />
    <glyph glyph-name="t" unicode="t" horiz-adv-x="355" 
d="M200 684v-167h128v-67h-128v-329q0 -30 11 -41q11 -13 38 -13h66v-67h-78q-64 0 -91 33q-25 29 -25 88v329h-104v67h104v134z" />
    <glyph glyph-name="u" unicode="u" horiz-adv-x="560" 
d="M62 517h80v-316q0 -75 31 -110q32 -37 102 -37q50 0 92 40q42 42 51 108v315h80v-517h-80v80q-64 -94 -168 -94q-188 0 -188 211v320z" />
    <glyph glyph-name="v" unicode="v" horiz-adv-x="482" 
d="M5 517h88l148 -417l148 417h88l-196 -517h-81z" />
    <glyph glyph-name="w" unicode="w" horiz-adv-x="755" 
d="M5 517h88l127 -419l120 419h75l120 -419l127 419h88l-176 -517h-76l-120 416l-122 -416h-75z" />
    <glyph glyph-name="x" unicode="x" horiz-adv-x="509" 
d="M27 517h94l134 -184l133 184h94l-183 -243l205 -274h-95l-154 215l-155 -215h-95l205 274z" />
    <glyph glyph-name="y" unicode="y" horiz-adv-x="496" 
d="M5 517h87l158 -408l153 408h88l-283 -715h-87l89 210z" />
    <glyph glyph-name="z" unicode="z" horiz-adv-x="487" 
d="M35 517h411v-56l-317 -394h333v-67h-437v58l316 392h-306v67z" />
    <glyph glyph-name="braceleft" unicode="{" horiz-adv-x="333" 
d="M312 827v-63h-56q-66 0 -66 -74v-208q0 -90 -82 -122q82 -33 82 -122v-209q0 -73 66 -73h56v-63h-69q-62 0 -95 39q-32 35 -32 99v204q0 44 -19 66q-21 24 -76 26v66q56 3 76 26q19 22 19 66v203q0 65 32 100q33 39 95 39h69z" />
    <glyph glyph-name="bar" unicode="|" horiz-adv-x="195" 
d="M64 860h67v-1000h-67v1000z" />
    <glyph glyph-name="braceright" unicode="}" horiz-adv-x="333" 
d="M21 827h69q61 0 95 -39q32 -37 32 -100v-203q0 -45 19 -67q21 -22 76 -25v-66q-55 -1 -76 -26q-19 -20 -19 -66v-204q0 -62 -32 -99q-34 -39 -95 -39h-69v63h56q66 0 66 73v209q0 89 82 122q-82 31 -82 122v208q0 74 -66 74h-56v63z" />
    <glyph glyph-name="asciitilde" unicode="~" horiz-adv-x="500" 
d="M260 391q66 -43 93 -43q33 0 79 70l50 -36q-65 -98 -129 -98q-46 0 -111 44q-65 43 -95 43q-35 0 -79 -69l-50 35q62 98 129 98q48 0 113 -44z" />
  </font>
</defs>
</svg>
